Jdi na obsah Jdi na menu
 


Pekelná jízda / Hell Ride (2008)

17. 12. 2009

Obrázek

CSFD 54%

Kód:
http://www.csfd.cz/film/230333-pekelna-jizda-hell-ride/

 

Citace:

Pistolero, Gent a Comanche. členové motorkářského gangu Victors mají nevyřízené účty jak mezi sebou, tak s gangem 666 a jejich bossem Duecem.
Přidejme Denise Hoppera a hodně, opravdu hodně vyvinutých, někdy i obnažených slečen a máme klasické "biker movie" z produkční stáje Quentina Tarantina.

 

INFO

Kód:

Format                           : AVI
Format/Info                      : Audio Video Interleave
File size                        : 704 MiB
Duration                         : 1h 20mn
Overall bit rate                 : 1 226 Kbps
Writing application              : VirtualDubMod 1.5.4.1 (build 2178/release)
Writing library                  : VirtualDubMod build 2178/release

Video
ID                               : 0
Format                           : MPEG-4 Visual
Format profile                   : AdvancedSimple@L5
Format settings, BVOP            : Yes
Format settings, QPel            : No
Format settings, GMC             : No warppoints
Format settings, Matrix          : Custom
Codec ID                         : XVID
Codec ID/Hint                    : XviD
Duration                         : 1h 20mn
Bit rate                         : 771 Kbps
Width                            : 528 pixels
Height                           : 304 pixels
Display aspect ratio             : 16:9
Frame rate                       : 25.000 fps
Resolution                       : 24 bits
Colorimetry                      : 4:2:0
Scan type                        : Progressive
Bits/(Pixel*Frame)               : 0.192
Stream size                      : 443 MiB (63%)
Writing library                  : XviD 1.2.1 (UTC 2008-12-04)

Audio
ID                               : 1
Format                           : AC-3
Format/Info                      : Audio Coding 3
Codec ID                         : 2000
Duration                         : 1h 20mn
Bit rate mode                    : Constant
Bit rate                         : 448 Kbps
Channel(s)                       : 6 channels
Channel positions                : Front: L C R, Surround: L R, LFE
Sampling rate                    : 48.0 KHz
Stream size                      : 258 MiB (37%)
Alignment                        : Split accross interleaves
Interleave, duration             : 96 ms (2.40 video frames)
Interleave, preload duration     : 96 ms
Language                         : Czech

 

RAPIDSHARE

Kód:
http://rapidshare.com/files/313606405/Pekelna.jizda.2008.DVDRip.CZ-Kurty.part1.rar
http://rapidshare.com/files/313606363/Pekelna.jizda.2008.DVDRip.CZ-Kurty.part2.rar
http://rapidshare.com/files/313606447/Pekelna.jizda.2008.DVDRip.CZ-Kurty.part3.rar
http://rapidshare.com/files/313605840/Pekelna.jizda.2008.DVDRip.CZ-Kurty.part4.rar


HELLSHARE
Kód:

http://download.hellshare.sk/pekelna-jizda-2008-dvdrip-kurty.avi/742025

 

Kód:
http://download.cz.hellshare.com/peklo-kur-by-ultimathule-of-ucu.avi/742047

Obrázek
Kód:
http://share-rapid.com/stahuj/531014/peklo-kur-by-ultimathule-of-ucu.avi

Obrázek
Kód:
http://www.storage.to/get/oeLtBwzN/peklo.kur.by.UltimaThule.of.UCU.avi


po 200mb:

Obrázek
Kód:
http://rapidshare.com/files/313619900/peklo.kur.by.UltimaThule.of.UCU.part1.rar.html
http://rapidshare.com/files/313620633/peklo.kur.by.UltimaThule.of.UCU.part2.rar.html
http://rapidshare.com/files/313621398/peklo.kur.by.UltimaThule.of.UCU.part3.rar.html
http://rapidshare.com/files/313621645/peklo.kur.by.UltimaThule.of.UCU.part4.rar.html


.... Enjoy with Ultima Thule.of.Unique.Crew.Uploaders uploads !!!
Citace:
Přidán záznam na opravu dat !!!
Bez Hesla !!!